منتدى الوميض العربي
أهلاً وسهلاً على منتدى الوميض العربي


منتدى الوميض العربي
 
الرئيسيةالبوابةاليوميةمكتبة الصورس .و .جبحـثقائمة الاعضاءالمجموعاتالتسجيلدخولميايهغنوةيوتوب السخاني

شاطر | 
 

 حصـريأ الفيلم الهندى * Yun Hota To Kya Hota * 2006 *1CD * DVDRiP * XviD

استعرض الموضوع السابق استعرض الموضوع التالي اذهب الى الأسفل 
كاتب الموضوعرسالة
الزعيم
Admin
Admin


mms mms : mms
وسام التميز : وسام التميز
الاوسمة : الأدارة
ذكر
الثور
عدد المساهمات : 1169
تاريخ التسجيل : 18/03/2010
العمر : 28
الموقع الموقع : www-aloamed.ace.st
المزاج المزاج : ممتاز

لعبة عالمية
مرئي للجميع مرئي للجميع: 1

مُساهمةموضوع: حصـريأ الفيلم الهندى * Yun Hota To Kya Hota * 2006 *1CD * DVDRiP * XviD    الإثنين يونيو 28, 2010 6:51 am



مع الفيلـــــم الهنــــدى الرائــــع

Yun Hota To Kya Hota





[ندعوك للتسجيل في المنتدى أو التعريف بنفسك لمعاينة هذا الرابط]


Format : AVI
Format/Info : Audio Video Interleave
File size : 700 MiB
Duration : 2h 0mn
Overall bit rate : 813 Kbps
Writing application : VirtualDubMod 1.5.4.1 (build 2178/release)
Writing library : VirtualDubMod build 2178/release

Video
Format : MPEG-4 Visual
Format profile : Streaming Video@L1
Format settings, BVOP : Yes
Format settings, QPel : No
Format settings, GMC : No warppoints
Format settings, Matrix : Custom
Codec ID : XVID
Codec ID/Hint : XviD
Duration : 2h 0mn
Bit rate : 685 Kbps
Width : 640 pixels
Height : 368 pixels
Display aspect ratio : 16/9
Frame rate : 23.976 fps
Resolution : 24 bits
Colorimetry : 4:2:0
Scan type : Progressive
Bits/(Pixel*Frame) : 0.121
Stream size : 590 MiB (84%)
Writing library : XviD 1.1.0 (UTC 2005-11-22)

Audio
Format : MPEG Audio
Format version : Version 1
Format profile : Layer 3
Codec ID : 55
Codec ID/Hint : MP3
Duration : 2h 0mn
Bit rate mode : Variable
Bit rate : 115 Kbps
Minimum bit rate : 128 Kbps
Channel(s) : 2 channels
Sampling rate : 48.0 KHz
Resolution : 16 bits
Stream size : 99.4 MiB (14%)
Alignment : Aligned on interleaves
Interleave, duration : 24 ms (0.58 video frame)
Interleave, preload duration : 159 ms
Writing library : LAME3.97b
Encoding settings : ABR
Language : Hindi

لقطات من الفيلــم















[ندعوك للتسجيل في المنتدى أو التعريف بنفسك لمعاينة هذا الرابط]
[ندعوك للتسجيل في المنتدى أو التعريف بنفسك لمعاينة هذا الرابط]
[ندعوك للتسجيل في المنتدى أو التعريف بنفسك لمعاينة هذا الرابط]
[ندعوك للتسجيل في المنتدى أو التعريف بنفسك لمعاينة هذا الرابط]
[ندعوك للتسجيل في المنتدى أو التعريف بنفسك لمعاينة هذا الرابط]
[ندعوك للتسجيل في المنتدى أو التعريف بنفسك لمعاينة هذا الرابط]
[ندعوك للتسجيل في المنتدى أو التعريف بنفسك لمعاينة هذا الرابط]
[ندعوك للتسجيل في المنتدى أو التعريف بنفسك لمعاينة هذا الرابط]


الرجوع الى أعلى الصفحة اذهب الى الأسفل
معاينة صفحة البيانات الشخصي للعضو http://www-aloamed.ace.st
 
حصـريأ الفيلم الهندى * Yun Hota To Kya Hota * 2006 *1CD * DVDRiP * XviD
استعرض الموضوع السابق استعرض الموضوع التالي الرجوع الى أعلى الصفحة 
صفحة 1 من اصل 1
 مواضيع مماثلة
-
» تحميل جميع اصدارات الفيفا من fifa2008 الى fifa 94

صلاحيات هذا المنتدى:لاتستطيع الرد على المواضيع في هذا المنتدى
منتدى الوميض العربي :: قسم الأفلام :: أفلام هندية-
انتقل الى: